العودة   منتديات عميد التعريب > > >

الملاحظات

أفلام أجنبية الأفلام الأجنبية, أمريكية ,إنجليزية, هندية, صينية, كورية, all foreign films movies



إضافة رد

قديم 2014-06-13, 21:18   رقم المشاركة :1
معلومات العضو
عميد
Age of Tomorrow 2014 DVDRip XviD AC3-ACAB
إحصائية العضو





مستوى التقييم: 0
Shars is on a distinguished road
المنتدى : أفلام أجنبية
افتراضي Age of Tomorrow 2014 DVDRip XviD AC3-ACAB




Age of Tomorrow 2014 DVDRip XviD AC3-ACAB



When the sun strikes an altar hidden within the ancient Pyramid of the Sun in Mexico, it creates a beacon that triggers an alien blitzkrieg. Within hours, their ships destroy all the


Description

كود:
Format                                   : AVI
Format/Info                              : Audio Video Interleave
File size                                : 1.45 GiB
Duration                                 : 1h 30mn
Overall bit rate                         : 2 302 Kbps
Writing library                          : VirtualDub build 30091/release

Video
ID                                       : 0
Format                                   : MPEG-4 Visual
Format profile                           : Advanced Simple@L5
Format settings, BVOP                    : 2
Format settings, QPel                    : No
Format settings, GMC                     : No warppoints
Format settings, Matrix                  : Default (H.263)
Muxing mode                              : Packed bitstream
Codec ID                                 : XVID
Codec ID/مرحباnt                            : XviD
Duration                                 : 1h 30mn
Bit rate                                 : 1 845 Kbps
Width                                    : 720 pixels
Height                                   : 400 pixels
Display aspect ratio                     : 16:9
Frame rate                               : 23.976 fps
Color space                              : YUV
Chroma subsampling                       : 4:2:0
Bit depth                                : 8 bits
Scan type                                : Progressive
Compression mode                         : Lossy
Bits/(Pixel*Frame)                       : 0.267
Stream size                              : 1.16 GiB (80%)
Writing library                          : XviD 1.2.1 (UTC 2008-12-04)

Audio
ID                                       : 1
Format                                   : AC-3
Format/Info                              : Audio Coding 3
Mode extension                           : CM (complete main)
Format settings, Endianness              : Big
Codec ID                                 : 2000
Duration                                 : 1h 30mn
Bit rate mode                            : Constant
Bit rate                                 : 448 Kbps
Channel(s)                               : 6 channels
Channel positions                        : Front: L C R, Side: L R, LFE
Sampling rate                            : 48.0 KHz
Bit depth                                : 16 bits
Compression mode                         : Lossy
Stream size                              : 289 MiB (19%)
Alignment                                : Aligned on interleaves
Interleave, duration                     : 42 ms (1.00 video frame)
Interleave, preload duration             : 512 ms

IMDB

كود:
https://www.imdb.com/title/tt3677466/

Screenshot






1 Link





كود:
https://rapidgator.net/file/e5b79e1a0d28ed4f50f3ae16a5bc0998/Age_of_Tomorrow_2014_DVDRip_XviD_AC3_ACAB.rar.html


كود:
https://uploaded.net/file/8mpr9cjp/Age of Tomorrow 2014 DVDRip XviD AC3 ACAB.rar


كود:
https://www.oboom.com/QEP210LT/Age%20of%20Tomorrow%202014%20DVDRip%20XviD%20AC3%20ACAB.rar

Links interchangeable



كود:
https://rapidgator.net/file/22fe713171ca19450dfc5ef00a6c0e96/Age_of_Tomorrow_2014_DVDRip_XviD_AC3_ACAB.part1.rar.html
https://rapidgator.net/file/9d6d1cf29f4730cc1c592c46eaf6cf98/Age_of_Tomorrow_2014_DVDRip_XviD_AC3_ACAB.part2.rar.html


كود:
https://uploaded.net/file/vpymdb7n/Age of Tomorrow 2014 DVDRip XviD AC3 ACAB.part1.rar
https://uploaded.net/file/3ft4j4ru/Age of Tomorrow 2014 DVDRip XviD AC3 ACAB.part2.rar


كود:
https://www.uploadable.ch/file/kcfwnDhQh98K
https://www.uploadable.ch/file/NGC8zWNRHTqv






Shars غير متواجد حالياً   رد مع اقتباس


قديم 2014-06-13, 21:20   رقم المشاركة :2
معلومات العضو
فرجالله
عميد
Age of Tomorrow 2014 DVDRip XviD AC3-ACAB
إحصائية العضو





مستوى التقييم: 6
فرجالله is on a distinguished road
كاتب الموضوع : Shars المنتدى : أفلام أجنبية
افتراضي


الله يحفظك ويرحم والديك. أشكرك ألف شكر...


فرجالله غير متواجد حالياً   رد مع اقتباس

قديم 2014-06-13, 21:20   رقم المشاركة :3
معلومات العضو
magdi
عميد
Age of Tomorrow 2014 DVDRip XviD AC3-ACAB
إحصائية العضو





مستوى التقييم: 7
magdi is on a distinguished road
كاتب الموضوع : Shars المنتدى : أفلام أجنبية
افتراضي


جهودك محل تقدير من الجميع ... بارك الله فيك


magdi غير متواجد حالياً   رد مع اقتباس
إضافة رد

مواقع النشر (المفضلة)

أدوات الموضوع إبحث في الموضوع
إبحث في الموضوع:

البحث المتقدم
انواع عرض الموضوع

تعليمات المشاركة
لا تستطيع إضافة مواضيع جديدة
لا تستطيع الرد على المواضيع
لا تستطيع إرفاق ملفات
لا تستطيع تعديل مشاركاتك

BB code is متاحة
كود [IMG] متاحة
كود HTML متاحة

الانتقال السريع


الساعة الآن 18:27

جميع المشاركات المكتوبة تعبّر عن وجهة نظر صاحبها .. ولا تعبر عن وجهة نظر إدارة المنتدى بأي شكل من الأشكال



ساهم معنا
تبرع لتساعد على الاستمرار ومواصلة تعريب البرامج للعالم العربي.
ساهم في صمود وبقاء ونشر اللغة العربية في العالم من أجل الأجيال القادمة.
تودع مبالغ التبرعات في احد الحسابات التالية
اسم البنك
رقم الحساب
بنك الراجحي _ من خارج السعودية
IBAN - SA2880000141608010128882
بنك الراجحى _ من داخل السعودية 141608010128882



Powered by vBulletin® Version 3.8.11
Copyright ©2000 - 2017, vBulletin Solutions, Inc.
Search Engine Optimisation provided by DragonByte SEO (Pro) - vBulletin Mods & Addons Copyright © 2017 DragonByte Technologies Ltd.
جميع الحقوق محفوظة لموقع منتديات عميد التعريب 2010 - 2017 ©