العودة   منتديات عميد التعريب > > >

الملاحظات

أفلام أجنبية الأفلام الأجنبية, أمريكية ,إنجليزية, هندية, صينية, كورية, all foreign films movies



إضافة رد

قديم 2014-06-12, 23:37   رقم المشاركة :1
معلومات العضو
عميد
A Million Ways To Die In The West 2014 READNFO NEW CAM XviD-HELLRAZ0R
إحصائية العضو





مستوى التقييم: 0
Shars is on a distinguished road
المنتدى : أفلام أجنبية
افتراضي A Million Ways To Die In The West 2014 READNFO NEW CAM XviD-HELLRAZ0R




A Million Ways To Die In The West 2014 READNFO NEW CAM XviD-HELLRAZ0R



As a cowardly farmer begins to fall for the mysterious new woman in town, he must put his new-found courage to the test when her husband, a notorious gun-slinger, announces his arrival.


Description

كود:
Video
ID                                       : 0
Format                                   : MPEG-4 Visual
Format profile                           : Advanced Simple@L5
Format settings, BVOP                    : 2
Format settings, QPel                    : No
Format settings, GMC                     : No warppoints
Format settings, Matrix                  : Default (H.263)
Muxing mode                              : Packed bitstream
Codec ID                                 : XVID
Codec ID/مرحباnt                            : XviD
Duration                                 : 1h 49mn
Bit rate                                 : 848 Kbps
Width                                    : 640 pixels
Height                                   : 272 pixels
Display aspect ratio                     : 2.35:1
Frame rate                               : 50.000 fps
Color space                              : YUV
Chroma subsampling                       : 4:2:0
Bit depth                                : 8 bits
Scan type                                : Progressive
Compression mode                         : Lossy
Bits/(Pixel*Frame)                       : 0.097
Stream size                              : 666 MiB (85%)
Writing library                          : XviD 64

Audio
ID                                       : 1
Format                                   : MPEG Audio
Format version                           : Version 1
Format profile                           : Layer 3
Codec ID                                 : 55
Codec ID/مرحباnt                            : MP3
Duration                                 : 1h 49mn
Bit rate mode                            : Constant
Bit rate                                 : 128 Kbps
Channel(s)                               : 1 channel
Sampling rate                            : 44.1 KHz
Compression mode                         : Lossy
Stream size                              : 100 MiB (13%)
Alignment                                : Split accross interleaves
Interleave, duration                     : 20 ms (1.00 video frame)
Interleave, preload duration             : 500 ms

IMDB

كود:
https://www.imdb.com/title/tt2557490/

Screenshot








1 Link



كود:
https://rapidgator.net/file/189877fd6ed1154aacce7179fc733817/A-M-W-to-D-CAM-XviD-HELLRAZ0R.rar.html


كود:
https://uploaded.net/file/n5xv5py1/A-M-W-to-D-CAM-XviD-HELLRAZ0R.rar


كود:
https://www.oboom.com/N207IFR0/A-M-W-to-D-CAM-XviD-HELLRAZ0R.rar


كود:
https://www.uploadable.ch/file/Xa82fdEmvWbV







Shars غير متواجد حالياً   رد مع اقتباس

إضافة رد

مواقع النشر (المفضلة)

أدوات الموضوع إبحث في الموضوع
إبحث في الموضوع:

البحث المتقدم
انواع عرض الموضوع

تعليمات المشاركة
لا تستطيع إضافة مواضيع جديدة
لا تستطيع الرد على المواضيع
لا تستطيع إرفاق ملفات
لا تستطيع تعديل مشاركاتك

BB code is متاحة
كود [IMG] متاحة
كود HTML متاحة

الانتقال السريع


الساعة الآن 23:34

جميع المشاركات المكتوبة تعبّر عن وجهة نظر صاحبها .. ولا تعبر عن وجهة نظر إدارة المنتدى بأي شكل من الأشكال



ساهم معنا
تبرع لتساعد على الاستمرار ومواصلة تعريب البرامج للعالم العربي.
ساهم في صمود وبقاء ونشر اللغة العربية في العالم من أجل الأجيال القادمة.
تودع مبالغ التبرعات في احد الحسابات التالية
اسم البنك
رقم الحساب
بنك الراجحي _ من خارج السعودية
IBAN - SA2880000141608010128882
بنك الراجحى _ من داخل السعودية 141608010128882



Powered by vBulletin® Version 3.8.11
Copyright ©2000 - 2017, vBulletin Solutions, Inc.
Search Engine Optimisation provided by DragonByte SEO (Pro) - vBulletin Mods & Addons Copyright © 2017 DragonByte Technologies Ltd.
جميع الحقوق محفوظة لموقع منتديات عميد التعريب 2010 - 2017 ©