العودة   منتديات عميد التعريب > > >

الملاحظات

أفلام أجنبية الأفلام الأجنبية, أمريكية ,إنجليزية, هندية, صينية, كورية, all foreign films movies



إضافة رد

قديم 2014-05-20, 03:54   رقم المشاركة :1
معلومات العضو
عميد
Godzilla (2014) CAM XviD-HELLRAZ0R
إحصائية العضو





مستوى التقييم: 0
darkwarez is on a distinguished road
المنتدى : أفلام أجنبية
افتراضي Godzilla (2014) CAM XviD-HELLRAZ0R




Godzilla (2014) CAM XviD-HELLRAZ0R
File Size: 704 MiB


Movie INFO

Title: Godzilla (2014)
Rating: 7.5
Language: English
Genres: Action | Adventure | Sci-Fi
Director: Gareth Edwards
Cast: Aaron Taylor-Johnson, Elizabeth Olsen, Bryan Cranston
Storyline: The world's most famous monster is pitted against malevolent creatures who, bolstered by humanity's scientific arrogance, threaten our very existence.

iMDb:


كود:
https://www.imdb.com/title/tt0831387/
Info Tech
كود:
General
Complete name                            : /home/zeuseuh2/public_html/rapidleech/files/Descargas-Directas/Godzilla.2014.CAM.XviD-HELLRAZ0R.avi
Format                                   : AVI
Format/Info                              : Audio Video Interleave
File size                                : 704 MiB
Duration                                 : 1h 52mn
Overall bit rate                         : 874 Kbps
Writing application                      : AVI-Mux GUI 1.17.8.3, Feb 16 201019:42:50
Writing library                          : VirtualDub build 32842/release

Video
ID                                       : 0
Format                                   : MPEG-4 Visual
Format profile                           : Advanced Simple@L5
Format settings, BVOP                    : 2
Format settings, QPel                    : No
Format settings, GMC                     : No warppoints
Format settings, Matrix                  : Default (H.263)
Muxing mode                              : Packed bitstream
Codec ID                                 : XVID
Codec ID/مرحباnt                            : XviD
Duration                                 : 1h 52mn
Bit rate                                 : 737 Kbps
Width                                    : 624 pixels
Height                                   : 272 pixels
Display aspect ratio                     : 2.25:1
Frame rate                               : 24.000 fps
Color space                              : YUV
Chroma subsampling                       : 4:2:0
Bit depth                                : 8 bits
Scan type                                : Progressive
Compression mode                         : Lossy
Bits/(Pixel*Frame)                       : 0.181
Stream size                              : 593 MiB (84%)
Writing library                          : XviD 64

Audio
ID                                       : 1
Format                                   : MPEG Audio
Format version                           : Version 1
Format profile                           : Layer 3
Codec ID                                 : 55
Codec ID/مرحباnt                            : MP3
Duration                                 : 1h 52mn
Bit rate mode                            : Constant
Bit rate                                 : 128 Kbps
Channel(s)                               : 2 channels
Sampling rate                            : 48.0 KHz
Compression mode                         : Lossy
Delay relative to video                  : 23ms
Stream size                              : 103 MiB (15%)
Alignment                                : Split accross interleaves
Interleave, duration                     : 42 ms (1.00 video frame)
Interleave, preload duration             : 500 ms
Screenshots



Download - No Password

كود:
https://uploaded.net/file/5d2b7ze4/Godzilla.2014.CAM.XviD-HELLRAZ0R.rar
https://rapidgator.net/file/9232832774110df34e6f590cbb9957ef/Godzilla.2014.CAM.XviD-HELLRAZ0R.rar.html






darkwarez غير متواجد حالياً   رد مع اقتباس


قديم 2014-05-20, 03:57   رقم المشاركة :2
معلومات العضو
سموئل
عميد
Godzilla (2014) CAM XviD-HELLRAZ0R
إحصائية العضو





مستوى التقييم: 8
سموئل is on a distinguished road
كاتب الموضوع : darkwarez المنتدى : أفلام أجنبية
افتراضي


ألف ألف شكر ... الله يحفظك ويرعاك


سموئل غير متواجد حالياً   رد مع اقتباس
إضافة رد

مواقع النشر (المفضلة)

أدوات الموضوع إبحث في الموضوع
إبحث في الموضوع:

البحث المتقدم
انواع عرض الموضوع

تعليمات المشاركة
لا تستطيع إضافة مواضيع جديدة
لا تستطيع الرد على المواضيع
لا تستطيع إرفاق ملفات
لا تستطيع تعديل مشاركاتك

BB code is متاحة
كود [IMG] متاحة
كود HTML متاحة

الانتقال السريع


الساعة الآن 05:56

جميع المشاركات المكتوبة تعبّر عن وجهة نظر صاحبها .. ولا تعبر عن وجهة نظر إدارة المنتدى بأي شكل من الأشكال



ساهم معنا
تبرع لتساعد على الاستمرار ومواصلة تعريب البرامج للعالم العربي.
ساهم في صمود وبقاء ونشر اللغة العربية في العالم من أجل الأجيال القادمة.
تودع مبالغ التبرعات في احد الحسابات التالية
اسم البنك
رقم الحساب
بنك الراجحي _ من خارج السعودية
IBAN - SA2880000141608010128882
بنك الراجحى _ من داخل السعودية 141608010128882



Powered by vBulletin® Version 3.8.11
Copyright ©2000 - 2017, vBulletin Solutions, Inc.
Search Engine Optimisation provided by DragonByte SEO (Pro) - vBulletin Mods & Addons Copyright © 2017 DragonByte Technologies Ltd.
جميع الحقوق محفوظة لموقع منتديات عميد التعريب 2010 - 2017 ©