العودة   منتديات عميد التعريب > > >

الملاحظات

أفلام أجنبية الأفلام الأجنبية, أمريكية ,إنجليزية, هندية, صينية, كورية, all foreign films movies



إضافة رد

قديم 2014-05-19, 01:41   رقم المشاركة :1
معلومات العضو
عميد
The Double (2013) HDRip XviD VAiN
إحصائية العضو





مستوى التقييم: 0
darkwarez is on a distinguished road
المنتدى : أفلام أجنبية
افتراضي The Double (2013) HDRip XviD VAiN


The Double (2013) HDRip XviD VAiN
File Size: 1.33 GiB




Info Movie

Title: The Double
Rating: 7.5
Genres: Comedy, Drama, Thriller
Director: Richard Ayoade
Storyline: A clerk in a government agency finds his unenviable life takes a turn for the horrific with the arrival of a new co-worker who is both his exact physical double and his opposite



كود:
https://www.imdb.com/title/tt1825157/
Info Tech



كود:
General
Complete name                            : The.Double.2014.HDRip.XviD-VAiN.avi
Format                                   : AVI
Format/Info                              : Audio Video Interleave
File size                                : 1.33 GiB
Duration                                 : 1h 32mn
Overall bit rate                         : 2 059 Kbps
Writing application                      : VirtualDubMod 1.5.10.2 (build 2540/release)
Writing library                          : VirtualDubMod build 2540/release

Video
ID                                       : 0
Format                                   : MPEG-4 Visual
Format profile                           : Advanced Simple@L5
Format settings, BVOP                    : 1
Format settings, QPel                    : No
Format settings, GMC                     : No warppoints
Format settings, Matrix                  : Default (MPEG)
Codec ID                                 : XVID
Codec ID/مرحباnt                            : XviD
Duration                                 : 1h 32mn
Bit rate                                 : 1 857 Kbps
Width                                    : 720 pixels
Height                                   : 400 pixels
Display aspect ratio                     : 16:9
Frame rate                               : 25.000 fps
Color space                              : YUV
Chroma subsampling                       : 4:2:0
Bit depth                                : 8 bits
Scan type                                : Progressive
Compression mode                         : Lossy
Bits/(Pixel*Frame)                       : 0.258
Stream size                              : 1.20 GiB (90%)
Writing library                          : XviD 1.2.1 (UTC 2008-12-04)

Audio
ID                                       : 1
Format                                   : MPEG Audio
Format version                           : Version 1
Format profile                           : Layer 3
Mode                                     : Joint stereo
Codec ID                                 : 55
Codec ID/مرحباnt                            : MP3
Duration                                 : 1h 32mn
Bit rate mode                            : Constant
Bit rate                                 : 192 Kbps
Channel(s)                               : 2 channels
Sampling rate                            : 48.0 KHz
Compression mode                         : Lossy
Stream size                              : 127 MiB (9%)
Alignment                                : Aligned on interleaves
Interleave, duration                     : 40 ms (1.00 video frame)
Interleave, preload duration             : 504 ms
Writing library                          : LAME3.99r
Screenshots



Download - Interchangeable Links - No Password

كود:
https://uploaded.net/file/9gslmlpa/The.Double.2014.HDRip.XviD-VAiN.part1.rar
https://uploaded.net/file/g1754zzw/The.Double.2014.HDRip.XviD-VAiN.part2.rar
https://uploaded.net/file/q4kn5nkj/The.Double.2014.HDRip.XviD-VAiN.part3.rar

https://rapidgator.net/file/e4a8b74a6b40c06d866909cbf19d1266/The.Double.2014.HDRip.XviD-VAiN.part1.rar.html
https://rapidgator.net/file/f79238ab1a74a54499e5afa07aee72b6/The.Double.2014.HDRip.XviD-VAiN.part2.rar.html
https://rapidgator.net/file/58d9b1bd67ee3e6c261e1a548a9ca38e/The.Double.2014.HDRip.XviD-VAiN.part3.rar.html






darkwarez غير متواجد حالياً   رد مع اقتباس


قديم 2014-05-19, 01:44   رقم المشاركة :2
معلومات العضو
امير الغرب
عميد
The Double (2013) HDRip XviD VAiN
إحصائية العضو





مستوى التقييم: 10
امير الغرب is on a distinguished road
كاتب الموضوع : darkwarez المنتدى : أفلام أجنبية
افتراضي


جهودك محل تقدير من الجميع ... بارك الله فيك


امير الغرب غير متواجد حالياً   رد مع اقتباس
إضافة رد

مواقع النشر (المفضلة)

أدوات الموضوع إبحث في الموضوع
إبحث في الموضوع:

البحث المتقدم
انواع عرض الموضوع

تعليمات المشاركة
لا تستطيع إضافة مواضيع جديدة
لا تستطيع الرد على المواضيع
لا تستطيع إرفاق ملفات
لا تستطيع تعديل مشاركاتك

BB code is متاحة
كود [IMG] متاحة
كود HTML متاحة

الانتقال السريع


الساعة الآن 09:36

جميع المشاركات المكتوبة تعبّر عن وجهة نظر صاحبها .. ولا تعبر عن وجهة نظر إدارة المنتدى بأي شكل من الأشكال



ساهم معنا
تبرع لتساعد على الاستمرار ومواصلة تعريب البرامج للعالم العربي.
ساهم في صمود وبقاء ونشر اللغة العربية في العالم من أجل الأجيال القادمة.
تودع مبالغ التبرعات في احد الحسابات التالية
اسم البنك
رقم الحساب
بنك الراجحي _ من خارج السعودية
IBAN - SA2880000141608010128882
بنك الراجحى _ من داخل السعودية 141608010128882



Powered by vBulletin® Version 3.8.11
Copyright ©2000 - 2017, vBulletin Solutions, Inc.
Search Engine Optimisation provided by DragonByte SEO (Pro) - vBulletin Mods & Addons Copyright © 2017 DragonByte Technologies Ltd.
جميع الحقوق محفوظة لموقع منتديات عميد التعريب 2010 - 2017 ©